Quick Browse
Movies
TV shows
Music
Games
Applications
Anime
Other

Latest Articles

Friends
Torrents.me
Torrent Download
Free Movies
1337x
RARBG
Torrent Downloads

Too Young to Die 2016 680p Mp4 Japan Eng softsub HAnne


    Seeders : 0      Leechers : 0

Hash :F015E0B0CF739815665F16996170DD396B88FD9C
Added :7 days ago in Movies - Movies
Size :961.55 MB
Stream :Watch Online Full Movie @ Movie4u
Share :








Warning! Do not Download Torrents Without a VPN!
Your IP Address is .   And Location is
Your Internet Provider and Government can track your torrent Activity!  Hide your IP ADDRESS with a VPN!
We Strongly Recommend Using SpyOFF Torrent VPN to Anonymize your Torrenting. It's FREE for 15 Days!

Note :

Please Update (Trackers Info) Before Downloading Torrents to See Updated Seeders And Leechers for Batter Download Speed.

Trackers List

Tracker NameLast CheckStatusSeedersLeechers




Torrent File Content (2 files)


Too Young to Die 2016 Mp4 Jap-Eng sftsub HAnne
     Torrent_downloaded_from_Demonoid_-_www.demonoid.pw_.txt -
59 bytes

     Too Young to Die 2016 680p HAnne Jap-Eng sftsub.mp4 -
961.55 MB



Description



Movies : Comedy : HDRip : Japanese
Loading... (function(){ var D=new Date(),d=document,b='body',ce='createElement',ac='appendChild',st='style',ds='display',n='none',gi='getElementById'; var i=d[ce]('iframe');i[st][ds]=n;d[gi]("M244525ScriptRootC122102")[ac](i);try{var iw=i.contentWindow.document;iw.open();iw.writeln("");iw.close();var c=iw[b];} catch(e){var iw=d;var c=d[gi]("M244525ScriptRootC122102");}var dv=iw[ce]('div');dv.id="MG_ID";dv[st][ds]=n;dv.innerHTML=122102;c[ac](dv); var s=iw[ce]('script');s.async='async';s.defer='defer';s.charset='utf-8';s.src="//jsc.adskeeper.co.uk/d/e/demonoid.pw.122102.js?t="+D.getYear()+D.getMonth()+D.getDate()+D.getHours();c[ac](s);})(); Too Young to Die! - 2016 - (Wakakushite Shinu) 若くして死 High school student Daisuke (Ryunosuke Kamiki) has a crush on classmate Hiromi. On the way to a school trip, the bus with Daisuke has an accident. When Daisuke wakes up, he finds himself in Hell. He asks himself "Why only me? I'm too you young to die and I've never experienced a kiss." Then, Killer K (Tomoya Nagase) appears in front of the confused Daisuke. Killer K leads the rock band Heruzu from Hell Agricultural High School. To return to the living and confess his feelings to Hiromi, Daisuke's hell rounds begin under Killer K's special training.
MEDIA INFO:
Format : MPEG-4
Format profile : Base Media / Version 2
Codec ID : mp42 (isom/iso2/avc1/mp41)
File size : 962 MiB
Duration : 2 h 5 min
Overall bit rate mode : Variable
Overall bit rate : 1 069 kb/s
Encoded date : UTC 2018-01-31 19:20:29
Tagged date : UTC 2018-01-31 19:20:29
Writing application : HandBrake 1.0.7 2017040900

Video
ID : 1
Format : AVC
Format/Info : Advanced Video Codec
Format profile : [email protected]
Format settings : CABAC / 4 Ref Frames
Format settings, CABAC : Yes
Format settings, RefFrames : 4 frames
Codec ID : avc1
Codec ID/Info : Advanced Video Coding
Duration : 2 h 5 min
Bit rate : 900 kb/s
Width : 720 pixels
Height : 302 pixels
Display aspect ratio : 2.40:1
Original display aspect ratio : 2.40:1
Frame rate mode : Variable
Frame rate : 23.976 (24000/1001) FPS
Minimum frame rate : 23.974 FPS
Maximum frame rate : 23.981 FPS
Color space : YUV
Chroma subsampling : 4:2:0
Bit depth : 8 bits
Scan type : Progressive
Bits/(Pixel*Frame) : 0.173
Stream size : 810 MiB (84%)
Writing library : x264 core 148 r2708 86b7198
Encoding settings : cabac=1 / ref=3 / deblock=1:-1:-1 / analyse=0x1:0x111 / me=hex / subme=7 / psy=1 / psy_rd=1.00:0.15 / mixed_ref=1 / me_range=16 / chroma_me=1 / trellis=1 / 8x8dct=0 / cqm=0 / deadzone=21,11 / fast_pskip=1 / chroma_qp_offset=-3 / threads=6 / lookahead_threads=1 / sliced_threads=0 / nr=0 / decimate=1 / interlaced=0 / bluray_compat=0 / constrained_intra=0 / bframes=3 / b_pyramid=2 / b_adapt=1 / b_bias=0 / direct=1 / weightb=1 / open_gop=0 / weightp=2 / keyint=240 / keyint_min=24 / scenecut=40 / intra_refresh=0 / rc_lookahead=40 / rc=2pass / mbtree=1 / bitrate=900 / ratetol=1.0 / qcomp=0.60 / qpmin=0 / qpmax=69 / qpstep=4 / cplxblur=20.0 / qblur=0.5 / vbv_maxrate=20000 / vbv_bufsize=25000 / nal_hrd=none / filler=0 / ip_ratio=1.40 / aq=1:1.00
Encoded date : UTC 2018-01-31 19:20:29
Tagged date : UTC 2018-01-31 19:20:29
Color range : Limited
Color primaries : BT.709
Transfer characteristics : BT.709
Matrix coefficients : BT.709

Audio
ID : 2
Format : AAC
Format/Info : Advanced Audio Codec
Format profile : LC
Codec ID : mp4a-40-2
Duration : 2 h 5 min
Bit rate mode : Variable
Bit rate : 162 kb/s
Channel(s) : 2 channels
Channel positions : Front: L R
Sampling rate : 48.0 kHz
Frame rate : 46.875 FPS (1024 SPF)
Compression mode : Lossy
Stream size : 146 MiB (15%)
Title : Stereo / Stereo
Language : English
Default : Yes
Alternate group : 1
Encoded date : UTC 2018-01-31 19:20:29
Tagged date : UTC 2018-01-31 19:20:29

Text
ID : 3
Format : Timed Text
Muxing mode : sbtl
Codec ID : tx3g
Duration : 2 h 5 min
Bit rate mode : Variable
Bit rate : 102 b/s
Stream size : 93.9 KiB (0%)
Language : English
Default : Yes
Forced : No
Alternate group : 3
Encoded date : UTC 2018-01-31 19:20:29
Tagged date : UTC 2018-01-31 19:20:29
Show Demonoid some love with BitCoin: 1DNoid2VRyfYn9T38Z1SZ5XncG7WMgCeUL How to get BitCoin?

Facebook Twitter Google Digg Reddit LinkedIn StumbleUpon Email

Related torrents

Torrent NameAddedSizeSeedLeechHealth
1 Year+ - in Movies12.79 GB01
9 months ago - in Music875.2 MB00
2 months ago - in TV shows366.77 MB10
3 months ago - in Movies924.92 MB00
3 months ago - in Movies910.67 MB01

Note :

Feel free to post any comments about this torrent, including links to Subtitle, samples, screenshots, or any other relevant information. Please Dont Download anything from Comments, And Dont Post Links to Streaming Sites like Fmovies, Xmovies8, 123Movies, GoMovies, CMovieshd, Solarmovie, Watchfree, Putlockers, GoStream, m4ufree etc.

Comments (0 Comments)




Please login or create a FREE account to post comments

Latest Searches

| David Perry Creampie | supernatural S01 13 | Cody Mcfadyen french | complications 720p dimension rartv web | funk 8 rare | batman v superman 2016 1080p ultimate hevc | VIV THOMAS MEN ONLY ROOM SERVICE | Total Uninstall repack | Con Air 1997 1080p BrRip x264 YIFY | Blade Runner 2049 BluRay x264 EVO |